#TITLE:HUNTING FOR YOU;
#SUBTITLE:(Apple Mix);
#ARTIST:Togo Project feat. G2R;
#TITLETRANSLIT:;
#SUBTITLETRANSLIT:;
#ARTISTTRANSLIT:;
#CREDIT:;
#BANNER:Hunting4U-banner.png;
#BACKGROUND:HuntingForYouApple2-bg.png;
#LYRICSPATH:;
#CDTITLE:;
#MUSIC:Hunting 4 U.mp3;
#MUSICLENGTH:84.897;
#OFFSET:-0.020;
#SAMPLESTART:39.945;
#SAMPLELENGTH:12.000;
#SELECTABLE:YES;
#BPMS:0.000=105.100;
#STOPS:;
#BGCHANGES:;
#FIRSTBEAT:8.000;

#LASTBEAT:147.000;

#SONGFILENAME:Songs/ERICth MIX 2nd Style/Hunting 4 U mix/hunting4u.sm;

#HASMUSIC:1;

#HASBANNER:1;


//---------------dance-single - MANIAC----------------
#NOTES:
     dance-single:
     MANIAC:
     hard:
     7:
     0.434,0.475,0.153,0.047,0.212,241.000,13.000,4.000,0.000,0.000:


0000
0000
0000
0000
,
0000
0000
0000
0000
,
0000
0000
0100
0000
0001
1000
0000
0010
0100
0010
0100
0001
0000
0000
0000
0000
,
1000
0100
0010
0001
,
0000
0000
1000
0000
0010
1000
0000
0010
0001
1000
0100
1000
0000
0000
0000
0000
,
0001
0100
0010
1000
,
0000
0000
0100
0000
0010
1000
0000
0010
0001
0010
0001
0100
0000
0000
0000
0000
,
1000
0001
0100
0010
,
1000
0100
0001
0100
1000
0010
1000
0100
,
0001
0100
1000
0010
1000
0100
0001
0100
,
1000
0001
1000
0001
0100
0001
0100
0001
,
1000
0010
1000
0010
0100
0001
1000
0000
,
1000
0100
0001
0100
1000
0010
1000
0100
,
0001
0100
1000
0010
1000
0100
0001
0100
,
1000
0001
1000
0001
0100
0001
0100
0001
,
1000
0010
1000
0010
0100
0001
1000
0000
,
0100
0000
0000
0000
0100
0000
0100
0000
0100
0000
0000
0000
0100
0010
0100
0010
,
0100
0000
0000
0000
0100
0000
0000
0000
1000
0000
0010
0000
0001
0010
0000
0000
,
1100
0000
0000
0000
1100
0000
0010
0000
1000
0000
0010
0000
0100
0000
0010
1000
,
0000
0000
0000
0000
0000
0000
0000
0100
0001
0100
0001
0000
0001
1000
0000
0000
,
1001
0000
0000
0000
0000
0000
1000
0000
1000
0000
0001
0000
0100
0010
0000
0000
,
0110
0220
0000
0000
0000
0330
0000
0000
,
1000
0100
0001
0010
,
0001
0100
1000
0010
,
1001
0000
1000
0000
0010
0100
0000
0100
1000
0100
0001
0100
0000
0000
0000
0000
,
1001
0000
0001
0000
0010
0100
0000
0100
0001
0100
1000
0100
0000
0000
0000
0000
,
2200
0000
0000
3300
,
1001
0000
1000
0100
1000
0000
0001
0010
0001
0000
0000
0000
1010
0000
0101
0000
,
0001
0100
1000
0100
0001
0100
0010
0100
,
0010
0100
1000
0100
0001
0100
0010
0100
,
0001
1000
0001
0010
0001
0100
0001
1000
,
0001
0000
0010
0000
0001
0000
0100
0000
0100
0010
0000
0000
0010
0000
0000
0000
,
0001
0100
1000
0100
0001
0100
0010
0100
,
0010
0100
1000
0100
0001
0100
0010
0100
,
0001
1000
0001
0010
0001
0100
0001
1000
,
0001
0000
0010
0000
0001
0000
0100
0000
0100
0010
0000
0000
0110
0000
0000
0000
,
1001
0000
0100
0000
1000
0100
0000
0001
1000
0001
1000
0001
0000
0000
0000
0000;

//---------------dance-single - ANOTHER----------------
#NOTES:
     dance-single:
     ANOTHER:
     medium:
     4:
     0.294,0.346,0.059,0.047,0.000,166.000,5.000,4.000,0.000,0.000:

0000
0000
0000
0000
,
0000
0000
0000
0000
,
0000
0010
1000
0000
0001
1000
0100
0000
,
0001
0100
0010
0000
,
1000
0001
1000
0000
0100
1000
0010
0000
,
0100
0000
0001
0000
0010
0000
0001
1000
,
0000
1000
0001
0000
0100
1000
0010
0000
,
0010
0001
0100
0001
0100
0001
0100
0001
,
0001
0000
1000
0000
0010
0100
0010
0000
,
1000
0000
0100
0000
0001
0010
0001
0000
,
0100
0000
1000
0000
0010
1000
0100
0000
,
0001
0000
0100
0000
0010
0001
0100
0000
,
0001
1000
0100
0010
,
0010
0010
0100
0000
0001
0000
1000
0000
,
0100
0010
0110
0110
,
1000
0100
0001
1000
,
1010
0001
0101
0001
,
1000
0000
0001
0000
1000
0100
1000
0100
,
1000
0100
1000
0010
,
1000
0001
0010
0001
0010
0000
0001
0000
,
1000
0000
0100
0000
0010
0001
0000
0000
,
1000
0000
0001
0000
1000
0100
0010
0000
,
0001
0000
1000
0010
0100
0010
0100
0010
,
0100
0100
0100
0100
,
0002
0000
1000
0000
0010
0000
1000
0003
,
0200
0000
1000
0000
0010
0000
1000
0300
,
0001
1000
0100
1000
,
0010
0100
1000
0100
0001
0000
1000
0100
,
0010
0000
1100
0100
0010
0001
1000
0100
,
1000
0010
1000
0100
1000
0001
1000
0010
,
0000
0000
0100
0000
0000
0010
0001
0000
,
0100
0000
0000
0000
0000
0001
1000
0000
,
0200
1000
0000
1000
,
0000
0000
1000
0000
0000
1000
1000
0000
,
1000
0302
0000
0100
,
0000
0000
1000
0000
0100
0000
1000
0003
,
0010
0000
0100
0000
1000
0001
1000
0000;

//---------------dance-single - BASIC----------------
#NOTES:
     dance-single:
     BASIC:
     easy:
     3:
     0.168,0.260,0.118,0.035,0.000,87.000,10.000,3.000,0.000,0.000:

0000
0000
0000
0000
,
0000
0000
0000
0000
,
0001
1000
0001
1000
,
0000
0000
0000
0000
,
0010
0100
0010
0100
,
0000
0001
0000
0001
,
0000
1000
0000
0100
,
0000
0100
0010
0010
,
0110
0000
0000
0000
,
1001
0000
0000
0000
,
0011
0000
0000
0000
,
1100
0000
0000
0000
,
0010
0000
0100
0000
,
0010
0001
0011
0000
,
0100
0000
1000
0000
,
0010
1000
1010
0000
,
0200
0000
0000
0000
,
0000
0000
0000
0300
,
0001
1000
0010
0000
,
0010
1000
0001
0000
,
0001
0100
1000
0000
,
1000
0100
0001
0000
,
0001
0010
1000
0000
,
1000
0010
0001
0000
,
1000
0001
1000
0001
,
1000
0100
1000
0100
,
2000
0000
0000
0000
,
3010
0000
0000
0000
,
0010
1000
0001
1100
,
0010
0100
0001
0001
,
0100
0010
1000
1010
,
0100
0110
0001
0011
,
0100
0000
0100
0000
,
0001
0100
1000
0000
,
0001
0100
1000
0000
,
0001
0100
1000
0000
,
0010
0000
0002
0003;
